盘乐网

 找回密码
 加入论坛
提示:多个关键词中间加空格 例如:天龙八部 星河
查看: 425|回复: 35

[BD-1080P] [中国香港][1992][现代应召女郎][刘嘉玲/罗美薇/周慧敏][爱情][国粤语简繁软中字][1080P][MKV/5.38G][港版蓝光修复无水印][至尊宝] 含百度网盘 含115网盘

[复制链接]

主题
3186
活跃值
21641
热心值
2604
盘币
376657
注册时间
2018-4-7
最后登录
2022-1-20
在线时间
1797 小时

长期在线阳光心情老会员勋章鼎力支持我是土豪优秀会员普通精华热心人士爱心满满灌水之王荣誉会员资源组成员动漫达人夜猫子

发表于 7 天前 | 显示全部楼层 |阅读模式
请尊重分享者,本资源仅限交流未经楼主同意严禁转载或盈利,违者封号处理!
p2592338813_gaitubao_455x580.jpg

◎译  名 Girls Without Tomorrow / 应召女郎1988之二:现代应召女郎
◎片  名 现代应召女郎
◎年  代 1992
◎产  地 中国香港
◎类  别 爱情
◎语  言 汉语普通话/粤语
◎上映日期 1992-07-30(中国香港)
◎IMDb评星  ★★★★★★✦☆☆☆
◎IMDb评分  6.3/10 from 70 users
◎IMDb链接  https://www.imdb.com/title/tt0105856/
◎豆瓣评星 ★★★✦☆
◎豆瓣评分 7.3/10 from 3,322 users
◎豆瓣链接 https://movie.douban.com/subject/1303979/
◎片  长 100 分钟
◎导  演 黄志 / Chi Wong
      林德禄 /  David Lam
◎演  员 刘嘉玲 / Carina Lau
      冯宝宝 / Bo-Bo Fung
      罗美薇 / May Lo Mei-Mei
      周慧敏 / Vivian Chow
      陈宝莲 / Pauline Chan
      许志安 / Andy Hui Chi-On
      李子雄 / Waise Lee
      郑伊健 / Ekin Cheng
      吴启明 / Kai-Ming Ng
      程东 / John Ching Tung
      周志辉 / Chi-Fai Chow
      沈威 / Wai Shum
      翁世杰 / Sai-Kit Yung
      潘震伟 / Tom Poon
      韩义生 / Yee Sang Hon
      刘兆铭 / Lau Siu Ming
      徐忠信 / Alan Chui Chung San
      梁锦荣 / Kam Wing Leung
      冯瑞珍 / Sui Chun Fung
      承恩 / En Chreng
      冯峰 / Fung Fung
      张凤妮 / Betsy Cheung
      林富伟 / Fu-wai Lam
      陈文妤 / Man-Hiu Chan
      麦克·里德 / Mike Leeder | 饰 Western businessman
      杨允敬 / Wan King Yeung
      黄金棠 / Kam-Tong Wong
      丁家强 / Michael Dingo | 饰 王
◎编  剧 黄志 / Chi Wong
      苏文星 / Man Sing So
◎美  术 雷楚雄 / Bill Lui
◎其  它 苏文星 / Man Sing So
      周锦祥 / Gam Cheung Chow

◎简  介 

  红姐(冯宝宝饰)是受人爱戴的鸨母,为人四海豪迈,生平唯一的遗憾是她的女儿小玲(周慧敏饰)-电视红星方小玲因歧视其母而不愿和她相认,但讽刺的是-小玲为巩固自己的地位,不惜向有关人士出卖肉体。后在一次火灾中,红姐为救女儿身受重伤,生命垂危。红姐有一义女叫华女(刘嘉玲饰),在夜总会当小姐,因故与经理起冲突遂愤而辞职,赋闲其间在红姐处养伤,对小玲势利的态度甚为不满,二人势同水火。红姐在拉客时遇见阿玉(罗美薇饰),阿玉为完成到国外念书的心愿而接客,红姐劝其回头,但其心意已坚无法说服。绮华(陈宝莲饰)与医生男友阿海(李子雄饰)是青梅竹马,绮华为阿海下海当小姐,而阿海却与另一女医生发生感情,绮华伤心至极……

◎获奖情况 

  第29届台北金马影展 (1992)
  金马奖 最佳女配角(提名) 罗美薇


◎截    图
现代应召女郎.1992.BDRip.Girls Without Tomorrow.HKG.2Audio.@至尊宝.mkv_20220114_1.jpg 现代应召女郎.1992.BDRip.Girls Without Tomorrow.HKG.2Audio.@至尊宝.mkv_20220114_1.jpg 现代应召女郎.1992.BDRip.Girls Without Tomorrow.HKG.2Audio.@至尊宝.mkv_20220114_1.jpg 现代应召女郎.1992.BDRip.Girls Without Tomorrow.HKG.2Audio.@至尊宝.mkv_20220114_1.jpg

现代应召女郎.1992.BDRip.Girls Without Tomorrow.HKG.2Audio.@至尊宝.mkv.jpg

  1. Video
  2. ID                             : 1
  3. Format                         : HEVC
  4. Format/Info                    : High Efficiency Video Coding
  5. Format profile                 : Main 10@L4@Main
  6. Codec ID                       : V_MPEGH/ISO/HEVC
  7. Duration                       : 1 h 39 min
  8. Bit rate                       : 6 450 kb/s
  9. Width                          : 1 920 pixels
  10. Height                         : 1 080 pixels
  11. Display aspect ratio           : 16:9
  12. Frame rate mode                : Constant
  13. Frame rate                     : 24.000 FPS
  14. Color space                    : YUV
  15. Chroma subsampling             : 4:2:0
  16. Bit depth                      : 10 bits
  17. Bits/(Pixel*Frame)             : 0.130
  18. Stream size                    : 4.48 GiB (83%)
  19. Title                          : @至尊宝
  20. Writing library                : x265 3.4+33-5fa76b3fc:[Windows][GCC 5.4.0][64 bit] 10bit
  21. Encoding settings              : cpuid=1111039 / frame-threads=3 / numa-pools=8 / wpp / no-pmode / no-pme / no-psnr / no-ssim / log-level=2 / input-csp=1 / input-res=1920x1080 / interlace=0 / total-frames=0 / level-idc=0 / high-tier=1 / uhd-bd=0 / ref=1 / no-allow-non-conformance / no-repeat-headers / annexb / no-aud / no-hrd / info / hash=0 / no-temporal-layers / open-gop / min-keyint=24 / keyint=240 / gop-lookahead=0 / bframes=3 / b-adapt=0 / b-pyramid / bframe-bias=0 / rc-lookahead=5 / lookahead-slices=6 / scenecut=0 / hist-scenecut=0 / radl=0 / no-splice / no-intra-refresh / ctu=32 / min-cu-size=16 / no-rect / no-amp / max-tu-size=32 / tu-inter-depth=1 / tu-intra-depth=1 / limit-tu=0 / rdoq-level=0 / dynamic-rd=0.00 / no-ssim-rd / no-signhide / no-tskip / nr-intra=0 / nr-inter=0 / no-constrained-intra / strong-intra-smoothing / max-merge=2 / limit-refs=0 / no-limit-modes / me=0 / subme=0 / merange=57 / temporal-mvp / no-frame-dup / no-hme / no-weightp / no-weightb / no-analyze-src-pics / deblock=0:0 / no-sao / no-sao-non-deblock / rd=2 / selective-sao=0 / early-skip / rskip / fast-intra / no-tskip-fast / no-cu-lossless / no-b-intra / no-splitrd-skip / rdpenalty=0 / psy-rd=0.00 / psy-rdoq=0.00 / no-rd-refine / no-lossless / cbqpoffs=0 / crqpoffs=0 / rc=abr / bitrate=6500 / qcomp=0.60 / qpstep=4 / stats-write=0 / stats-read=0 / ipratio=1.40 / pbratio=1.30 / aq-mode=2 / aq-strength=0.00 / cutree / zone-count=0 / no-strict-cbr / qg-size=32 / no-rc-grain / qpmax=69 / qpmin=0 / no-const-vbv / sar=1 / overscan=0 / videoformat=5 / range=0 / colorprim=2 / transfer=2 / colormatrix=2 / chromaloc=0 / display-window=0 / cll=0,0 / min-luma=0 / max-luma=1023 / log2-max-poc-lsb=8 / vui-timing-info / vui-hrd-info / slices=1 / no-opt-qp-pps / no-opt-ref-list-length-pps / no-multi-pass-opt-rps / scenecut-bias=0.05 / hist-threshold=0.03 / no-opt-cu-delta-qp / no-aq-motion / no-hdr10 / no-hdr10-opt / no-dhdr10-opt / no-idr-recovery-sei / analysis-reuse-level=0 / analysis-save-reuse-level=0 / analysis-load-reuse-level=0 / scale-factor=0 / refine-intra=0 / refine-inter=0 / refine-mv=1 / refine-ctu-distortion=0 / no-limit-sao / ctu-info=0 / no-lowpass-dct / refine-analysis-type=0 / copy-pic=1 / max-ausize-factor=1.0 / no-dynamic-refine / no-single-sei / no-hevc-aq / no-svt / no-field / qp-adaptation-range=1.00 / no-scenecut-aware-qpconformance-window-offsets / right=0 / bottom=0 / decoder-max-rate=0 / no-vbv-live-multi-pass
  22. Language                       : Chinese
  23. Default                        : Yes
  24. Forced                         : No
  25. Color range                    : Limited

  26. Audio #1
  27. ID                             : 2
  28. ID in the original source medi : 4353 (0x1101)
  29. Format                         : AC-3
  30. Format/Info                    : Audio Coding 3
  31. Commercial name                : Dolby Digital
  32. Codec ID                       : A_AC3
  33. Duration                       : 1 h 39 min
  34. Bit rate mode                  : Constant
  35. Bit rate                       : 640 kb/s
  36. Channel(s)                     : 6 channels
  37. Channel layout                 : L R C LFE Ls Rs
  38. Sampling rate                  : 48.0 kHz
  39. Frame rate                     : 31.250 FPS (1536 SPF)
  40. Compression mode               : Lossy
  41. Stream size                    : 455 MiB (8%)
  42. Title                          : 国语
  43. Language                       : Chinese
  44. Service kind                   : Complete Main
  45. Default                        : Yes
  46. Forced                         : No
  47. Original source medium         : Blu-ray

  48. Audio #2
  49. ID                             : 3
  50. ID in the original source medi : 4352 (0x1100)
  51. Format                         : AC-3
  52. Format/Info                    : Audio Coding 3
  53. Commercial name                : Dolby Digital
  54. Codec ID                       : A_AC3
  55. Duration                       : 1 h 39 min
  56. Bit rate mode                  : Constant
  57. Bit rate                       : 640 kb/s
  58. Channel(s)                     : 6 channels
  59. Channel layout                 : L R C LFE Ls Rs
  60. Sampling rate                  : 48.0 kHz
  61. Frame rate                     : 31.250 FPS (1536 SPF)
  62. Compression mode               : Lossy
  63. Stream size                    : 455 MiB (8%)
  64. Title                          : 粤语
  65. Language                       : Chinese
  66. Service kind                   : Complete Main
  67. Default                        : No
  68. Forced                         : No
  69. Original source medium         : Blu-ray

  70. Text #1
  71. ID                             : 4
  72. Format                         : ASS
  73. Codec ID                       : S_TEXT/ASS
  74. Codec ID/Info                  : Advanced Sub Station Alpha
  75. Duration                       : 1 h 36 min
  76. Bit rate                       : 168 b/s
  77. Count of elements              : 1609
  78. Compression mode               : Lossless
  79. Stream size                    : 118 KiB (0%)
  80. Title                          : 简体中文ASS
  81. Language                       : Chinese
  82. Default                        : Yes
  83. Forced                         : No

  84. Text #2
  85. ID                             : 5
  86. Format                         : ASS
  87. Codec ID                       : S_TEXT/ASS
  88. Codec ID/Info                  : Advanced Sub Station Alpha
  89. Duration                       : 1 h 36 min
  90. Bit rate                       : 168 b/s
  91. Count of elements              : 1609
  92. Compression mode               : Lossless
  93. Stream size                    : 118 KiB (0%)
  94. Title                          : 繁体中文ASS
  95. Language                       : Chinese
  96. Default                        : No
  97. Forced                         : No

  98. Text #3
  99. ID                             : 6
  100. Format                         : UTF-8
  101. Codec ID                       : S_TEXT/UTF8
  102. Codec ID/Info                  : UTF-8 Plain Text
  103. Duration                       : 1 h 36 min
  104. Bit rate                       : 60 b/s
  105. Count of elements              : 1609
  106. Stream size                    : 42.5 KiB (0%)
  107. Title                          : 简体中文SRT
  108. Language                       : Chinese
  109. Default                        : No
  110. Forced                         : No

  111. Text #4
  112. ID                             : 7
  113. Format                         : UTF-8
  114. Codec ID                       : S_TEXT/UTF8
  115. Codec ID/Info                  : UTF-8 Plain Text
  116. Duration                       : 1 h 36 min
  117. Bit rate                       : 60 b/s
  118. Count of elements              : 1609
  119. Stream size                    : 42.5 KiB (0%)
  120. Title                          : 繁体中文SRT
  121. Language                       : Chinese
  122. Default                        : No
  123. Forced                         : No

  124. Menu
  125. 00:00:00.000                   : en:第 01 章
  126. 00:08:13.250                   : en:第 02 章
  127. 00:15:55.291                   : en:第 03 章
  128. 00:24:05.583                   : en:第 04 章
  129. 00:35:11.666                   : en:第 05 章
  130. 00:44:52.666                   : en:第 06 章
  131. 00:52:15.791                   : en:第 07 章
  132. 01:01:28.750                   : en:第 08 章
  133. 01:08:34.291                   : en:第 09 章
  134. 01:17:48.958                   : en:第 10 章
  135. 01:24:54.708                   : en:第 11 章
  136. 01:34:11.458                   : en:第 12 章

复制代码


重新分享HEVC 10Bit 版本




点击进入百度网盘下载(←购买前请先验证分享链接是否有效)



此处内容付费可见

此处内容需要向楼主支付盘币或购买VIP才能显示 已有 34 人购买 

支付 5 盘币 升级VIP


该资源其他网盘分享渠道→点此了解功能详情

使用115网盘下载(来自 至尊宝c 的分享,下载需要单独支付 5 盘币)

免责申明 - 论坛版权1、本站所有资源均来自会员分享或网络收集整理,仅供会员交流学习,禁用商业用途或盈利,下载后请在24小时之内删除;
2、本站(www.pan6.com)支持正版,本资源版权归版权方所有,观看或阅读请到相应机构购买正版资源;
3、本站资源均来源于网络,本站不参与录制、上传,如本帖侵犯到任何版权问题,请立即告知本站(admin#pan6.com(#=@)),本站将及时予与删除并致以最深的歉意;
楼主热贴推荐
华语影视爱好者
BT资源无法下载:戳这里,不会发帖、金币相关等新手问题:戳这里
回复

拉黑 使用道具 举报

为保留有用回复信息,此处有 34 个购买者的感谢留言已隐藏

主题
0
活跃值
13112
热心值
-2
盘币
4790
注册时间
2015-10-11
最后登录
2022-1-20
在线时间
369 小时
发表于 6 天前 | 显示全部楼层
感謝樓主分享.......
回复

拉黑 使用道具 举报

严禁灌水、讽刺、挖苦、辱骂分享者行为。回复前请详读:点击进入 理性回复,以免永久封禁。
您需要登录后才可以回帖 登录 | 加入论坛

本版积分规则

免责声明:本站所有资源均收集自互联网,没有提供影片资源存储,也未参与录制、上传。若本站收录的资源涉及您的版权或知识产权或其他利益,请附上版权证明邮件告知,在收到邮件后24小时内删除。

Copyright © 2012 [盘乐网] 管理员邮箱:admin#pan6.com(#=@)

站长信箱|sitemap|手机版|小黑屋|百度统计|盘乐网 ( 粤ICP备18120611号 )

快速回复 返回顶部 返回列表