盘乐网

 找回密码
 加入论坛
提示:多个关键词中间加空格 例如:天龙八部 星河
查看: 341|回复: 27

[BD-1080P] [中国香港][1976][新精武门][成龙/苗可秀/蒋金][动作][国语简繁软中字][1080P][MKV/5.29G][英版2K蓝光修复无水印][至尊宝] 含百度网盘 含115网盘

[复制链接]

主题
3186
活跃值
21641
热心值
2604
盘币
363691
注册时间
2018-4-7
最后登录
2022-1-21
在线时间
1797 小时

长期在线阳光心情老会员勋章鼎力支持我是土豪优秀会员普通精华热心人士爱心满满灌水之王荣誉会员资源组成员动漫达人夜猫子

发表于 7 天前 | 显示全部楼层 |阅读模式
请尊重分享者,本资源仅限交流未经楼主同意严禁转载或盈利,违者封号处理!
p2626572696_gaitubao_455x642.jpg
◎译  名 新精武门 / New Fist of Fury / Fists To Fight
◎片  名 新精武門
◎年  代 1976
◎产  地 中国香港 / 中国台湾
◎类  别 剧情 / 动作
◎语  言 汉语普通话
◎上映日期 1976-07-08
◎IMDb评星  ★★★★★✦☆☆☆☆
◎IMDb评分  5.6/10 from 1,571 users
◎IMDb链接  https://www.imdb.com/title/tt0075439/
◎豆瓣评星 ★★★☆☆
◎豆瓣评分 6.3/10 from 2,552 users
◎豆瓣链接 https://movie.douban.com/subject/2154245/
◎片  长 114分钟
◎导  演 罗维 / Wei Lo
◎演  员 成龙 / Jackie Chan
      苗可秀 / Nora Miao
      罗维 / Wei Lo
      陈星 / Sing Chen
      蒋金 / Kam Cheung
      刘明 / Ming Liu
      韩苏 / Su Han
      鲁平 / Ping Lu
      陆一龙 / Yi-Long Lu
      韩英杰 / Ying-Chieh Han
      孙岚 / Lan Sun
◎编  剧 罗维 / Wei Lo
      潘垒 / Lei  Pan
◎摄  影 许迪文 / Dik-Man Hui

◎简  介 

  剧情:陈真去世以后,精武门名存实亡,师妹小丽壮心不死,誓为师兄陈真报仇。遂欲投奔远在台湾的外公,但是遇到日本人的阻扰和追杀,一行三人正无路可逃时,得到了华籍探长的冒死相助,终于有惊无险的来到了台湾。在台湾小丽遇到了阿龙,阿龙是个有为青年,从小饱受欺凌,但是极富爱国心,心性极高,也很有天...

◎幕后揭秘

  1973年李小龙猝然暴毙,整个华语影坛都在急切的寻找功夫接班人,罗维将成龙推到了荧光目前,希望他成为李小龙的接班人,而且按照李小龙的电影模式打造了这部《新精武门》。但是李小龙是世界的神话和传奇,他的经历和形象是无人可以代替的,影片一经推出就遭受惨败。在影片中,成龙的模仿和表演都是如此的拙劣和粗糙,虽然他的武功底子非常扎实,但是完全塑造不出李小龙的精神气韵,在影片中,成龙还只是一个导演和武功的木偶,还远远没有形成自己的风格。




◎截    图
新精武门.1976.BDRip.New Fist of Fury.AC3.@至尊宝.mkv_20220114_141446.661.jpg 新精武门.1976.BDRip.New Fist of Fury.AC3.@至尊宝.mkv_20220114_141436.181.jpg 新精武门.1976.BDRip.New Fist of Fury.AC3.@至尊宝.mkv_20220114_141432.248.jpg 新精武门.1976.BDRip.New Fist of Fury.AC3.@至尊宝.mkv_20220114_141425.580.jpg

新精武门.1976.BDRip.New Fist of Fury.AC3.@至尊宝.mkv.jpg

  1. Video
  2. ID                             : 1
  3. Format                         : HEVC
  4. Format/Info                    : High Efficiency Video Coding
  5. Format profile                 : Main 10@L4@Main
  6. Codec ID                       : V_MPEGH/ISO/HEVC
  7. Duration                       : 2 h 0 min
  8. Bit rate                       : 5 641 kb/s
  9. Width                          : 1 920 pixels
  10. Height                         : 1 080 pixels
  11. Display aspect ratio           : 16:9
  12. Frame rate mode                : Constant
  13. Frame rate                     : 23.976 (24000/1001) FPS
  14. Color space                    : YUV
  15. Chroma subsampling             : 4:2:0
  16. Bit depth                      : 10 bits
  17. Bits/(Pixel*Frame)             : 0.113
  18. Stream size                    : 4.73 GiB (90%)
  19. Title                          : @至尊宝
  20. Writing library                : x265 3.4+33-5fa76b3fc:[Windows][GCC 5.4.0][64 bit] 10bit
  21. Encoding settings              : cpuid=1111039 / frame-threads=3 / numa-pools=8 / wpp / no-pmode / no-pme / no-psnr / no-ssim / log-level=2 / input-csp=1 / input-res=1920x1080 / interlace=0 / total-frames=0 / level-idc=0 / high-tier=1 / uhd-bd=0 / ref=1 / no-allow-non-conformance / no-repeat-headers / annexb / no-aud / no-hrd / info / hash=0 / no-temporal-layers / open-gop / min-keyint=24 / keyint=240 / gop-lookahead=0 / bframes=3 / b-adapt=0 / b-pyramid / bframe-bias=0 / rc-lookahead=5 / lookahead-slices=6 / scenecut=0 / hist-scenecut=0 / radl=0 / no-splice / no-intra-refresh / ctu=32 / min-cu-size=16 / no-rect / no-amp / max-tu-size=32 / tu-inter-depth=1 / tu-intra-depth=1 / limit-tu=0 / rdoq-level=0 / dynamic-rd=0.00 / no-ssim-rd / no-signhide / no-tskip / nr-intra=0 / nr-inter=0 / no-constrained-intra / strong-intra-smoothing / max-merge=2 / limit-refs=0 / no-limit-modes / me=0 / subme=0 / merange=57 / temporal-mvp / no-frame-dup / no-hme / no-weightp / no-weightb / no-analyze-src-pics / deblock=0:0 / no-sao / no-sao-non-deblock / rd=2 / selective-sao=0 / early-skip / rskip / fast-intra / no-tskip-fast / no-cu-lossless / no-b-intra / no-splitrd-skip / rdpenalty=0 / psy-rd=0.00 / psy-rdoq=0.00 / no-rd-refine / no-lossless / cbqpoffs=0 / crqpoffs=0 / rc=abr / bitrate=5600 / qcomp=0.60 / qpstep=4 / stats-write=0 / stats-read=0 / ipratio=1.40 / pbratio=1.30 / aq-mode=2 / aq-strength=0.00 / cutree / zone-count=0 / no-strict-cbr / qg-size=32 / no-rc-grain / qpmax=69 / qpmin=0 / no-const-vbv / sar=1 / overscan=0 / videoformat=5 / range=0 / colorprim=2 / transfer=2 / colormatrix=2 / chromaloc=0 / display-window=0 / cll=0,0 / min-luma=0 / max-luma=1023 / log2-max-poc-lsb=8 / vui-timing-info / vui-hrd-info / slices=1 / no-opt-qp-pps / no-opt-ref-list-length-pps / no-multi-pass-opt-rps / scenecut-bias=0.05 / hist-threshold=0.03 / no-opt-cu-delta-qp / no-aq-motion / no-hdr10 / no-hdr10-opt / no-dhdr10-opt / no-idr-recovery-sei / analysis-reuse-level=0 / analysis-save-reuse-level=0 / analysis-load-reuse-level=0 / scale-factor=0 / refine-intra=0 / refine-inter=0 / refine-mv=1 / refine-ctu-distortion=0 / no-limit-sao / ctu-info=0 / no-lowpass-dct / refine-analysis-type=0 / copy-pic=1 / max-ausize-factor=1.0 / no-dynamic-refine / no-single-sei / no-hevc-aq / no-svt / no-field / qp-adaptation-range=1.00 / no-scenecut-aware-qpconformance-window-offsets / right=0 / bottom=0 / decoder-max-rate=0 / no-vbv-live-multi-pass
  22. Language                       : Chinese
  23. Default                        : Yes
  24. Forced                         : No
  25. Color range                    : Limited

  26. Audio
  27. ID                             : 2
  28. Format                         : AC-3
  29. Format/Info                    : Audio Coding 3
  30. Commercial name                : Dolby Digital
  31. Codec ID                       : A_AC3
  32. Duration                       : 2 h 0 min
  33. Bit rate mode                  : Constant
  34. Bit rate                       : 640 kb/s
  35. Channel(s)                     : 2 channels
  36. Channel layout                 : L R
  37. Sampling rate                  : 48.0 kHz
  38. Frame rate                     : 31.250 FPS (1536 SPF)
  39. Compression mode               : Lossy
  40. Stream size                    : 550 MiB (10%)
  41. Language                       : Chinese
  42. Service kind                   : Complete Main
  43. Default                        : Yes
  44. Forced                         : No

  45. Text #1
  46. ID                             : 3
  47. Format                         : ASS
  48. Codec ID                       : S_TEXT/ASS
  49. Codec ID/Info                  : Advanced Sub Station Alpha
  50. Duration                       : 1 h 57 min
  51. Bit rate                       : 83 b/s
  52. Count of elements              : 1156
  53. Compression mode               : Lossless
  54. Stream size                    : 71.9 KiB (0%)
  55. Title                          : 简体中文
  56. Language                       : Chinese
  57. Default                        : Yes
  58. Forced                         : No

  59. Text #2
  60. ID                             : 4
  61. Format                         : ASS
  62. Codec ID                       : S_TEXT/ASS
  63. Codec ID/Info                  : Advanced Sub Station Alpha
  64. Duration                       : 1 h 57 min
  65. Bit rate                       : 83 b/s
  66. Count of elements              : 1156
  67. Compression mode               : Lossless
  68. Stream size                    : 71.9 KiB (0%)
  69. Title                          : 繁体中文
  70. Language                       : Chinese
  71. Default                        : No
  72. Forced                         : No

  73. Menu
  74. 00:00:00.000                   : en:第 01 章
  75. 00:08:00.062                   : en:第 02 章
  76. 00:19:50.022                   : en:第 03 章
  77. 00:29:58.129                   : en:第 04 章
  78. 00:41:45.336                   : en:第 05 章
  79. 00:52:41.783                   : en:第 06 章
  80. 01:04:04.924                   : en:第 07 章
  81. 01:13:49.800                   : en:第 08 章
  82. 01:26:22.635                   : en:第 09 章
  83. 01:34:24.575                   : en:第 10 章
  84. 01:41:04.433                   : en:第 11 章
  85. 01:51:34.896                   : en:第 12 章

复制代码


HEVC 10Bit 压制




点击进入百度网盘下载(←购买前请先验证分享链接是否有效)



此处内容付费可见

此处内容需要向楼主支付盘币或购买VIP才能显示 已有 21 人购买 

支付 5 盘币 升级VIP


该资源其他网盘分享渠道→点此了解功能详情

使用115网盘下载(来自 至尊宝c 的分享,下载需要单独支付 5 盘币)

免责申明 - 论坛版权1、本站所有资源均来自会员分享或网络收集整理,仅供会员交流学习,禁用商业用途或盈利,下载后请在24小时之内删除;
2、本站(www.pan6.com)支持正版,本资源版权归版权方所有,观看或阅读请到相应机构购买正版资源;
3、本站资源均来源于网络,本站不参与录制、上传,如本帖侵犯到任何版权问题,请立即告知本站(admin#pan6.com(#=@)),本站将及时予与删除并致以最深的歉意;

点赞

参与人数 1热心值 +1

给力资源,感谢分享! + 1

查看点赞详情

楼主热贴推荐
华语影视爱好者
BT资源无法下载:戳这里,不会发帖、金币相关等新手问题:戳这里
回复

拉黑 使用道具 举报

为保留有用回复信息,此处有 21 个购买者的感谢留言已隐藏

主题
454
活跃值
4981
热心值
214
盘币
48536
注册时间
2017-11-10
最后登录
2022-1-20
在线时间
2743 小时
发表于 7 天前 | 显示全部楼层
楼主,请问粤语音轨是不是全部都是粤语,因为之前很多人发布完整版的粤语都是部分是国语的,所以特意前来咨询,盼复
支持原版影视,杜绝任何配音。 ...
回复

拉黑 使用道具 举报

主题
3186
活跃值
21641
热心值
2604
盘币
363691
注册时间
2018-4-7
最后登录
2022-1-21
在线时间
1797 小时

长期在线阳光心情老会员勋章鼎力支持我是土豪优秀会员普通精华热心人士爱心满满灌水之王荣誉会员资源组成员动漫达人夜猫子

 楼主| 发表于 7 天前 | 显示全部楼层
叶耿波 发表于 2022-1-14 16:36
楼主,请问粤语音轨是不是全部都是粤语,因为之前很多人发布完整版的粤语都是部分是国语的,所以特意前来咨 ...

我发的这个没有粤语
华语影视爱好者
回复

拉黑 使用道具 举报

主题
454
活跃值
4981
热心值
214
盘币
48536
注册时间
2017-11-10
最后登录
2022-1-20
在线时间
2743 小时
发表于 7 天前 | 显示全部楼层
至尊宝c 发表于 2022-1-14 16:37
我发的这个没有粤语

哈哈哈,不好意思,我没看清楚,那请问你能搞到粤语吧。
支持原版影视,杜绝任何配音。 ...
回复

拉黑 使用道具 举报

主题
3186
活跃值
21641
热心值
2604
盘币
363691
注册时间
2018-4-7
最后登录
2022-1-21
在线时间
1797 小时

长期在线阳光心情老会员勋章鼎力支持我是土豪优秀会员普通精华热心人士爱心满满灌水之王荣誉会员资源组成员动漫达人夜猫子

 楼主| 发表于 7 天前 | 显示全部楼层
叶耿波 发表于 2022-1-14 16:39
哈哈哈,不好意思,我没看清楚,那请问你能搞到粤语吧。

https://www.panle.net/thread-304647-1-1.html  潇湘子版本就有粤语,但是是不是完整的我也不清楚
华语影视爱好者
回复

拉黑 使用道具 举报

主题
495
活跃值
1263
热心值
92
盘币
11034
注册时间
2018-11-28
最后登录
2022-1-21
在线时间
855 小时

长期在线阳光心情老会员勋章鼎力支持灌水之王

发表于 7 天前 来自手机 | 显示全部楼层
叶耿波 发表于 2022-1-14 16:39
哈哈哈,不好意思,我没看清楚,那请问你能搞到粤语吧。

原始版本是是只有国语的,后来的重新剪辑版是粤语,箱神的版本,粤语也是剪进去的

点评

是的,所以粤语很难找  发表于 7 天前
回复

拉黑 使用道具 举报

主题
454
活跃值
4981
热心值
214
盘币
48536
注册时间
2017-11-10
最后登录
2022-1-20
在线时间
2743 小时
发表于 7 天前 | 显示全部楼层
至尊宝c 发表于 2022-1-14 16:44
https://www.panle.net/thread-304647-1-1.html  潇湘子版本就有粤语,但是是不是完整的我也不清楚 ...

这版本我买了,有部分属于国语,很遗憾
支持原版影视,杜绝任何配音。 ...
回复

拉黑 使用道具 举报

主题
3186
活跃值
21641
热心值
2604
盘币
363691
注册时间
2018-4-7
最后登录
2022-1-21
在线时间
1797 小时

长期在线阳光心情老会员勋章鼎力支持我是土豪优秀会员普通精华热心人士爱心满满灌水之王荣誉会员资源组成员动漫达人夜猫子

 楼主| 发表于 7 天前 | 显示全部楼层
叶耿波 发表于 2022-1-14 18:22
这版本我买了,有部分属于国语,很遗憾

那就是没有完整的粤语的,原声是国语的
华语影视爱好者
回复

拉黑 使用道具 举报

主题
8
活跃值
1334
热心值
5
盘币
316
注册时间
2020-4-5
最后登录
2022-1-20
在线时间
254 小时
发表于 7 天前 | 显示全部楼层
原来英版是完整版本啊。
回复

拉黑 使用道具 举报

主题
454
活跃值
4981
热心值
214
盘币
48536
注册时间
2017-11-10
最后登录
2022-1-20
在线时间
2743 小时
发表于 7 天前 | 显示全部楼层
至尊宝c 发表于 2022-1-14 18:26
那就是没有完整的粤语的,原声是国语的

是的,所以我就想找没有的,哈哈
支持原版影视,杜绝任何配音。 ...
回复

拉黑 使用道具 举报

主题
0
活跃值
1501
热心值
0
盘币
528
注册时间
2019-11-25
最后登录
2022-1-20
在线时间
213 小时
发表于 7 天前 | 显示全部楼层
这部电影我有vcd光碟,很早的
回复

拉黑 使用道具 举报

严禁灌水、讽刺、挖苦、辱骂分享者行为。回复前请详读:点击进入 理性回复,以免永久封禁。
您需要登录后才可以回帖 登录 | 加入论坛

本版积分规则

免责声明:本站所有资源均收集自互联网,没有提供影片资源存储,也未参与录制、上传。若本站收录的资源涉及您的版权或知识产权或其他利益,请附上版权证明邮件告知,在收到邮件后24小时内删除。

Copyright © 2012 [盘乐网] 管理员邮箱:admin#pan6.com(#=@)

站长信箱|sitemap|手机版|小黑屋|百度统计|盘乐网 ( 粤ICP备18120611号 )

快速回复 返回顶部 返回列表