盘乐网

 找回密码
 加入论坛
提示:多个关键词中间加空格 例如:天龙八部 星河
查看: 291|回复: 12

[喜剧] [中国香港][1992][漫画威龙][周星驰/萧芳芳/陈百祥][国粤语简繁软中字][DVDRip][MKV/1.95G][无水印] 含百度网盘 含115网盘

[复制链接]

主题
3186
活跃值
21641
热心值
2604
盘币
363708
注册时间
2018-4-7
最后登录
2022-1-21
在线时间
1797 小时

长期在线阳光心情老会员勋章鼎力支持我是土豪优秀会员普通精华热心人士爱心满满灌水之王荣誉会员资源组成员动漫达人夜猫子

发表于 7 天前 | 显示全部楼层 |阅读模式
请尊重分享者,本资源仅限交流未经楼主同意严禁转载或盈利,违者封号处理!
p2845512938_gaitubao_455x607.jpg

◎译  名 漫画威龙 / 摩登武圣 / 新精武门2:漫画威龙 / Fist of Fury 1991 II
◎片  名 漫畫威龍
◎年  代 1992
◎产  地 中国香港
◎类  别 喜剧 / 动作
◎语  言 汉语普通话/粤语
◎上映日期 1992-01-01
◎IMDb评星  ★★★★★★✦☆☆☆
◎IMDb评分  6.5/10 from 659 users
◎IMDb链接  https://www.imdb.com/title/tt0102386/
◎豆瓣评星 ★★★✦☆
◎豆瓣评分 7.0/10 from 25,467 users
◎豆瓣链接 https://movie.douban.com/subject/1400673/
◎片  长 93 分钟
◎导  演 左颂升 / Chung-Sing Choh
      元奎 / Corey Yuen
◎演  员 周星驰 / Stephen Chow | 饰 刘晶
      萧芳芳 / Josephine Siao
      陈百祥 / Pak-cheung Chan
      张敏 / Sharla Cheung
      钟镇涛 / Kenny Bee
      元华 / Wah Yuen
      梅小惠 / Siu-Wai Mui
      元德 / Tak Yuen
      谷峰 / Feng Ku
      梁心 / Hsin Liang | 饰 四师傅之一
      冼林煜 / Pomson Shi | 饰 横刀手下
      金相旭 / Sang Wook Kim
      陈远佳 / Yuen Kai Chan | 饰 市场商人
      童志 / Chi Tung | 饰 阿强
      吴浣仪 / Yuen Yee Ng
      尹扬明 / Yeung Ming Wan
      元奎 / Corey Yuen
◎编  剧 何东 / Dung Hoh
      刘镇伟 / Jeffrey Lau
◎制  片  人 陈永标 / Bill Chan
      元奎 / Corey Yuen
◎摄  影 陈远佳 / Yuen Kai Chan
◎美  术 陈永标 / Bill Chan
◎副  导  演 江约诚 / Johnnie Kong Yeuk-Sing
◎动作特技 元德 / Tak Yuen
◎其  它 叶国治 / Kwok-Chi Yip

◎简  介 

  本片是《新精武门》的续集。牛皮(陈百祥 饰)为刘晶(周星驰 饰)在擂台上的英姿折服,自此苦缠拜师,却引起小敏(张敏 饰)对刘晶误会。刘晶获得的巨额奖金被师父们全部输光,更卷入了潇洒(钟镇涛 饰)与一女孩的纠葛,小敏对他的误会也日益加深,刘晶运气一时衰到了极点。
  阿威之大哥横刀(元华 饰)为替弟报仇,将刘晶的神力右手打残,幸有牛皮之姑牛牡丹(萧芳芳 饰)危急关头蒙面救走刘晶。于是刘晶在牛家休养,邂逅和小敏相貌一样的牛皮表妹——婉君(张敏 饰),不久横刀找上门来,将牛皮与婉君掳走,牛牡丹为保住牛家血脉,只得将牛家祖传的“电角神拳”传授于刘晶……

◎幕后揭秘

  这是《新精武门》的续集,但在手法上更趋卡通化,周星驰的演出也因为之前的疯狂成功而比上集更加自信。所以,这两集影片实际上有着很大的变化。而且,这部续集中,萧芳芳的搞笑表演大出风头,其火候老辣,甚至很多对手戏决不逊于周星驰,二人的演出堪称珠联璧合,成为周星驰影片中最出色的男女搭档之一。钟镇涛的夸张表演也大有挑战周星驰的势头,再加上陈百祥、元华的绝好陪衬,阵容齐整,值得一看。


◎截    图
漫画威龙.1992.DVDRip.Fist of Fury 1991 II.2Audio.@至尊宝.mkv_20220114_140638.884.jpg 漫画威龙.1992.DVDRip.Fist of Fury 1991 II.2Audio.@至尊宝.mkv_20220114_140528.996.jpg 漫画威龙.1992.DVDRip.Fist of Fury 1991 II.2Audio.@至尊宝.mkv_20220114_140515.383.jpg 漫画威龙.1992.DVDRip.Fist of Fury 1991 II.2Audio.@至尊宝.mkv_20220114_140507.464.jpg

漫画威龙.1992.DVDRip.Fist of Fury 1991 II.2Audio.@至尊宝.mkv.jpg
  1. Video
  2. ID                             : 1
  3. Format                         : AVC
  4. Format/Info                    : Advanced Video Codec
  5. Format profile                 : High@L4.1
  6. Format settings                : CABAC / 1 Ref Frames
  7. Format settings, CABAC         : Yes
  8. Format settings, Reference fra : 1 frame
  9. Format settings, GOP           : M=3, N=24
  10. Codec ID                       : V_MPEG4/ISO/AVC
  11. Duration                       : 1 h 33 min
  12. Bit rate mode                  : Variable
  13. Bit rate                       : 2 583 kb/s
  14. Maximum bit rate               : 3 750 kb/s
  15. Width                          : 706 pixels
  16. Height                         : 382 pixels
  17. Display aspect ratio           : 16:10
  18. Original display aspect ratio  : 16:10
  19. Frame rate mode                : Variable
  20. Frame rate                     : 24.000 FPS
  21. Original frame rate            : 23.976 (24000/1001) FPS
  22. Color space                    : YUV
  23. Chroma subsampling             : 4:2:0
  24. Bit depth                      : 8 bits
  25. Scan type                      : Progressive
  26. Bits/(Pixel*Frame)             : 0.399
  27. Stream size                    : 1.69 GiB (86%)
  28. Title                          : @至尊宝
  29. Language                       : Chinese
  30. Default                        : Yes
  31. Forced                         : No
  32. Color range                    : Limited
  33. Color primaries                : BT.601 NTSC
  34. Transfer characteristics       : BT.601
  35. Matrix coefficients            : BT.601

  36. Audio #1
  37. ID                             : 2
  38. ID in the original source medi : 189 (0xBD)128 (0x80)
  39. Format                         : AC-3
  40. Format/Info                    : Audio Coding 3
  41. Commercial name                : Dolby Digital
  42. Codec ID                       : A_AC3
  43. Duration                       : 1 h 33 min
  44. Bit rate mode                  : Constant
  45. Bit rate                       : 192 kb/s
  46. Channel(s)                     : 2 channels
  47. Channel layout                 : L R
  48. Sampling rate                  : 48.0 kHz
  49. Frame rate                     : 31.250 FPS (1536 SPF)
  50. Compression mode               : Lossy
  51. Stream size                    : 128 MiB (6%)
  52. Title                          : 国语
  53. Language                       : Chinese
  54. Service kind                   : Complete Main
  55. Default                        : Yes
  56. Forced                         : No
  57. Original source medium         : DVD-Video

  58. Audio #2
  59. ID                             : 3
  60. ID in the original source medi : 189 (0xBD)129 (0x81)
  61. Format                         : AC-3
  62. Format/Info                    : Audio Coding 3
  63. Commercial name                : Dolby Digital
  64. Codec ID                       : A_AC3
  65. Duration                       : 1 h 33 min
  66. Bit rate mode                  : Constant
  67. Bit rate                       : 192 kb/s
  68. Channel(s)                     : 2 channels
  69. Channel layout                 : L R
  70. Sampling rate                  : 48.0 kHz
  71. Frame rate                     : 31.250 FPS (1536 SPF)
  72. Compression mode               : Lossy
  73. Stream size                    : 128 MiB (6%)
  74. Title                          : 粤语
  75. Language                       : Chinese
  76. Service kind                   : Complete Main
  77. Default                        : No
  78. Forced                         : No
  79. Original source medium         : DVD-Video

  80. Text #1
  81. ID                             : 4
  82. Format                         : ASS
  83. Codec ID                       : S_TEXT/ASS
  84. Codec ID/Info                  : Advanced Sub Station Alpha
  85. Duration                       : 1 h 30 min
  86. Bit rate                       : 149 b/s
  87. Count of elements              : 1522
  88. Compression mode               : Lossless
  89. Stream size                    : 99.4 KiB (0%)
  90. Title                          : 简体中文ASS
  91. Language                       : Chinese
  92. Default                        : Yes
  93. Forced                         : No

  94. Text #2
  95. ID                             : 5
  96. Format                         : ASS
  97. Codec ID                       : S_TEXT/ASS
  98. Codec ID/Info                  : Advanced Sub Station Alpha
  99. Duration                       : 1 h 30 min
  100. Bit rate                       : 149 b/s
  101. Count of elements              : 1522
  102. Compression mode               : Lossless
  103. Stream size                    : 99.4 KiB (0%)
  104. Title                          : 繁体中文ASS
  105. Language                       : Chinese
  106. Default                        : No
  107. Forced                         : No

  108. Text #3
  109. ID                             : 6
  110. Format                         : UTF-8
  111. Codec ID                       : S_TEXT/UTF8
  112. Codec ID/Info                  : UTF-8 Plain Text
  113. Duration                       : 1 h 30 min
  114. Bit rate                       : 41 b/s
  115. Count of elements              : 1522
  116. Stream size                    : 27.7 KiB (0%)
  117. Title                          : 简体中文SRT
  118. Language                       : Chinese
  119. Default                        : No
  120. Forced                         : No

  121. Text #4
  122. ID                             : 7
  123. Format                         : UTF-8
  124. Codec ID                       : S_TEXT/UTF8
  125. Codec ID/Info                  : UTF-8 Plain Text
  126. Duration                       : 1 h 30 min
  127. Bit rate                       : 41 b/s
  128. Count of elements              : 1522
  129. Stream size                    : 27.7 KiB (0%)
  130. Title                          : 繁体中文SRT
  131. Language                       : Chinese
  132. Default                        : No
  133. Forced                         : No

  134. Menu
  135. 00:00:00.066                   : en:Chapter 01
  136. 00:07:54.590                   : en:Chapter 02
  137. 00:15:55.037                   : en:Chapter 03
  138. 00:23:55.784                   : en:Chapter 04
  139. 00:31:56.247                   : en:Chapter 05
  140. 00:39:56.761                   : en:Chapter 06
  141. 00:47:57.241                   : en:Chapter 07
  142. 00:53:57.550                   : en:Chapter 08
  143. 01:03:58.134                   : en:Chapter 09
  144. 01:11:58.597                   : en:Chapter 10
  145. 01:19:59.161                   : en:Chapter 11
  146. 01:27:59.641                   : en:Chapter 12

复制代码



点击进入百度网盘下载(←购买前请先验证分享链接是否有效)



此处内容付费可见

此处内容需要向楼主支付盘币或购买VIP才能显示 已有 11 人购买 

支付 5 盘币 升级VIP


该资源其他网盘分享渠道→点此了解功能详情

使用115网盘下载(来自 至尊宝c 的分享,下载需要单独支付 5 盘币)

免责申明 - 论坛版权1、本站所有资源均来自会员分享或网络收集整理,仅供会员交流学习,禁用商业用途或盈利,下载后请在24小时之内删除;
2、本站(www.pan6.com)支持正版,本资源版权归版权方所有,观看或阅读请到相应机构购买正版资源;
3、本站资源均来源于网络,本站不参与录制、上传,如本帖侵犯到任何版权问题,请立即告知本站(admin#pan6.com(#=@)),本站将及时予与删除并致以最深的歉意;
楼主热贴推荐
华语影视爱好者
BT资源无法下载:戳这里,不会发帖、金币相关等新手问题:戳这里
回复

拉黑 使用道具 举报

为保留有用回复信息,此处有 11 个购买者的感谢留言已隐藏

主题
12
活跃值
80
热心值
8
盘币
429
注册时间
2021-1-15
最后登录
2022-1-20
在线时间
273 小时
发表于 6 天前 | 显示全部楼层
本帖最后由 xingjun008 于 2022-1-15 22:10 编辑

谢谢分享,有时间请楼主找一下- 青魇.Nightmare 2012,大陆电影高码HD1080P,谢谢了...
回复

拉黑 使用道具 举报

严禁灌水、讽刺、挖苦、辱骂分享者行为。回复前请详读:点击进入 理性回复,以免永久封禁。
您需要登录后才可以回帖 登录 | 加入论坛

本版积分规则

免责声明:本站所有资源均收集自互联网,没有提供影片资源存储,也未参与录制、上传。若本站收录的资源涉及您的版权或知识产权或其他利益,请附上版权证明邮件告知,在收到邮件后24小时内删除。

Copyright © 2012 [盘乐网] 管理员邮箱:admin#pan6.com(#=@)

站长信箱|sitemap|手机版|小黑屋|百度统计|盘乐网 ( 粤ICP备18120611号 )

快速回复 返回顶部 返回列表